[电影] [喜剧]  艺术机器 Art.Machine.2012.1080p.AMZN.WEBRip.DDP2.0.x264-monkee 4.75GB

 举报资源    订阅更新    收藏
发布日期: 2017-08-15 06:01:17
更新日期: 2017-08-15 06:01:17
点击次数: 4
文件大小:
发布用户: publisher
标       签: 机器  艺术  AMZN  Machine  WEBRip  
资源下载(资源数:1): Magnet磁力链接  离线下载  补充资源
文件名称(File name) 更新日期(Updated) 文件大小(File size)
文件列表(File List)
   下载地址 2017-08-15
资源介绍(Description):  举报资源
本站资源收集于互联网,不提供资源存储和上传,仅供网友交流学习,版权均归原权利方,不得用于商业用途,欢迎大家对侵犯版权等不合法和不健康行为进行监督和举报!

欢迎热爱p2p分享者入驻p2p资源分享社区

Art.Machine.2012.1080p.AMZN.WEBRip.DDP2.0.x264-monkee

◎译  名 艺术机器

◎片  名 Art Machine

◎年  代 2011

◎产  地 美国

◎类  别 喜剧

◎语  言 英语

◎上映日期 2011

◎导  演 Doug Karr

◎主  演 约瑟夫·克罗斯 Joseph Cross

      杰西卡·斯佐尔 Jessica Szohr

      乔伊·劳伦·亚当斯 Joey Lauren Adams

      Damian Young

      梅瑞迪斯·海格纳 Meredith Hagner

      Lynn Cohen

      Robert Beitzel

      Lucas Papaelias

      克里斯托弗·阿波特 Christopher Abbott

      Stephanie Ellis

      Nicki Miller

      Keith Perry

      Ashley Austin Morris

      Jimmy Palumbo

◎简  介

  From age six, child prodigy painter Declan Truss is propelled into the art world as a rare marvel, but by seventeen, a chemical imbalance and the tightrope of notoriety are catching up with him. He starts to see his family as the source of his suppression. The immense pressures of an impending coming-of-age exhibition loom as Declan seeks out inspiration. His world expands when he meets a group of rebellious freethinkers in Bushwick, Brooklyn. Falling in love, Declan slips off his medication, quickly spinning out of control, while magnetizing the Brooklyn rebels to join his progressively subversive showcase.

Video
ID : 1
Format : AVC
Format/Info : Advanced Video Codec
Format profile : High@L4
Format settings, CABAC : Yes
Format settings, ReFrames : 4 frames
Codec ID : V_MPEG4/ISO/AVC
Duration : 1 h 28 min
Bit rate mode : Variable
Bit rate : 7 439 kb/s
Maximum bit rate : 15.0 Mb/s
Width : 1 920 pixels
Height : 1 080 pixels
Display aspect ratio : 16:9
Frame rate mode : Constant
Frame rate : 23.976 (24000/1001) FPS
Color space : YUV
Chroma subsampling : 4:2:0
Bit depth : 8 bits
Scan type : Progressive
Bits/(Pixel*Frame) : 0.150
Stream size : 4.61 GiB (97%)
Default : Yes
Forced : No
Color range : Limited
Color primaries : BT.709
Transfer characteristics : BT.709
Matrix coefficients : BT.709

Audio
ID : 2
Format : E-AC-3
Format/Info : Enhanced Audio Coding 3
Format settings, Endianness : Big
Codec ID : A_EAC3
Duration : 1 h 28 min
Bit rate mode : Constant
Bit rate : 224 kb/s
Channel(s) : 2 channels
Channel positions : Front: L R
Sampling rate : 48.0 kHz
Frame rate : 187.500 FPS (256 spf)
Compression mode : Lossy
Stream size : 142 MiB (3%)
Language : English
Service kind : Complete Main
Default : Yes
Forced : No

Text
ID : 3
Format : UTF-8
Codec ID : S_TEXT/UTF8
Codec ID/Info : UTF-8 Plain Text
Duration : 1 h 25 min
Bit rate : 63 b/s
Count of elements : 1315
Stream size : 39.6 KiB (0%)
Language : English
Default : No
Forced : No

c0c4caa0d2dd4c71cc5d8c983e9dc075.jpg2d3425cea6a10081d60f261e0a74fcad.jpg
9863afc8d9ef018bb1cd1470a184eb02.jpge97360cba950b4bde77ddeb55214f8b1.jpg
05bb85ce9c6254214610a8d4ec944024.jpg


艺术机器 Art.Machine.2012.1080p.AMZN.WEBRip.DDP2.0.x264-monkee 4.75GB Magnet磁力链接

无觅关联推荐,快速提升流量