[电影] [动作]  [2017] [欧美] [动作]速度与激情8 2017.1080p.BluRay.REMUX.AVC.DTS-X.7.1-FGT 33.7GB

 举报资源    订阅更新    收藏
发布日期: 2017-07-01 18:01:22
更新日期: 2017-07-01 18:01:22
点击次数: 3
文件大小:
发布用户: publisher
标       签: 速度  动作  激情  欧美  BluRay  
资源下载(资源数:1): Magnet磁力链接  离线下载  补充资源
文件名称(File name) 更新日期(Updated) 文件大小(File size)
文件列表(File List)
   下载地址 2017-07-01
资源介绍(Description):  举报资源
本站资源收集于互联网,不提供资源存储和上传,仅供网友交流学习,版权均归原权利方,不得用于商业用途,欢迎大家对侵犯版权等不合法和不健康行为进行监督和举报!

欢迎热爱p2p分享者入驻p2p资源分享社区

The.Fate.of.the.Furious.2017.1080p.BluRay.REMUX.AVC.DTS-X.7.1-FGT

◎译  名 速度与激情8/狂野时速8(港)/玩命关头8(台)/速激8/速8/速度8

◎片  名 The Fate of the Furious

◎年  代 2017

◎产  地 美国

◎类  别 动作/犯罪

◎语  言 英语

◎上映日期 2017-04-12(法国)/2017-04-14(美国)/2017-04-14(中国大陆)

◎片  长 136分钟

◎导  演 F·加里·格雷 F. Gary Gray

◎主  演 范·迪塞尔 Vin Diesel

      道恩·强森 Dwayne Johnson

      查理兹·塞隆 Charlize Theron

      杰森·斯坦森 Jason Statham

      米歇尔·罗德里格兹 Michelle Rodriguez

      泰瑞斯·吉布森 Tyrese Gibson

      卢达克里斯 Ludacris

      库尔特·拉塞尔 Kurt Russell

      娜塔莉·伊曼纽尔 Nathalie Emmanuel

      卢克·伊万斯 Luke Evans

      埃尔莎·帕塔奇 Elsa Pataky

      克里斯托弗·海维尤 Kristofer Hivju

      斯科特·伊斯特伍德 Scott Eastwood

      帕特里克·圣埃斯普利特 Patrick St. Esprit

◎简  介

  多米尼克(范·迪塞尔 Vin Diesel 饰)与莱蒂(米歇尔·罗德里格兹 Michelle Rodriguez 饰)共度蜜月,布莱恩与米娅退出了赛车界,这支曾环游世界的顶级飞车家族队伍的生活正渐趋平淡。然而,一位神秘女子Cipher(查理兹·塞隆 Charlize T heron 饰)的出现,令整个队伍卷入信任与背叛的危机,面临前所未有的考验。

Video
ID : 1
Format : AVC
Format/Info : Advanced Video Codec
Format profile : High@L4.1
Format settings, CABAC : Yes
Format settings, ReFrames : 4 frames
Codec ID : V_MPEG4/ISO/AVC
Duration : 2 h 15 min
Bit rate mode : Variable
Maximum bit rate : 37.0 Mb/s
Width : 1 920 pixels
Height : 1 080 pixels
Display aspect ratio : 16:9
Frame rate mode : Constant
Frame rate : 23.976 (24000/1001) FPS
Color space : YUV
Chroma subsampling : 4:2:0
Bit depth : 8 bits
Scan type : Progressive
Title : The.Fate.of.the.Furious.2017.1080p.BluRay.REMUX.AVC.DTS-X.7.1-FGT
Language : English
Default : No
Forced : No

Audio #1
ID : 2
Format : DTS
Format/Info : Digital Theater Systems
Format profile : X / MA / Core
Mode : 16
Format settings, Endianness : Big
Codec ID : A_DTS
Bit rate mode : Variable / Variable / Constant
Bit rate : Unknown / Unknown / 1 509 kb/s
Channel(s) : Object Based / 8 channels / 6 channels
Channel positions : Object Based / Front: L C R, Side: L R, Back: L R, LFE / Front: L C R, Side: L R, LFE
Sampling rate : / 48.0 kHz / 48.0 kHz
Frame rate : 93.750 FPS (512 spf)
Bit depth : / 24 bits / 24 bits
Compression mode : / Lossless / Lossy
Title : The.Fate.of.the.Furious.2017.1080p.BluRay.REMUX.AVC.DTS-X.7.1-FGT
Language : English
Default : Yes
Forced : No

Audio #2
ID : 3
Format : DTS
Format/Info : Digital Theater Systems
Mode : 16
Format settings, Endianness : Big
Codec ID : A_DTS
Duration : 2 h 15 min
Bit rate mode : Constant
Bit rate : 1 509 kb/s
Channel(s) : 6 channels
Channel positions : Front: L C R, Side: L R, LFE
Sampling rate : 48.0 kHz
Frame rate : 93.750 FPS (512 spf)
Bit depth : 24 bits
Compression mode : Lossy
Stream size : 1.43 GiB (4%)
Title : The.Fate.of.the.Furious.2017.1080p.BluRay.REMUX.AVC.DTS-X.7.1-FGT
Language : English
Default : No
Forced : No

Audio #3
ID : 4
Format : DTS
Format/Info : Digital Theater Systems
Mode : 16
Format settings, Endianness : Big
Codec ID : A_DTS
Duration : 2 h 15 min
Bit rate mode : Constant
Bit rate : 255 kb/s
Channel(s) : 2 channels
Channel positions : Front: L R
Sampling rate : 48.0 kHz
Frame rate : 93.750 FPS (512 spf)
Bit depth : 24 bits
Compression mode : Lossy
Stream size : 248 MiB (1%)
Title : The.Fate.of.the.Furious.2017.1080p.BluRay.REMUX.AVC.DTS-X.7.1-FGT
Language : English
Default : No
Forced : No

Audio #4
ID : 5
Format : DTS
Format/Info : Digital Theater Systems
Mode : 16
Format settings, Endianness : Big
Codec ID : A_DTS
Duration : 2 h 15 min
Bit rate mode : Constant
Bit rate : 768 kb/s
Channel(s) : 6 channels
Channel positions : Front: L C R, Side: L R, LFE
Sampling rate : 48.0 kHz
Frame rate : 93.750 FPS (512 spf)
Bit depth : 24 bits
Compression mode : Lossy
Stream size : 747 MiB (2%)
Title : The.Fate.of.the.Furious.2017.1080p.BluRay.REMUX.AVC.DTS-X.7.1-FGT
Language : Spanish
Default : No
Forced : No

Audio #5
ID : 6
Format : DTS
Format/Info : Digital Theater Systems
Mode : 16
Format settings, Endianness : Big
Codec ID : A_DTS
Duration : 2 h 15 min
Bit rate mode : Constant
Bit rate : 768 kb/s
Channel(s) : 6 channels
Channel positions : Front: L C R, Side: L R, LFE
Sampling rate : 48.0 kHz
Frame rate : 93.750 FPS (512 spf)
Bit depth : 24 bits
Compression mode : Lossy
Stream size : 747 MiB (2%)
Title : The.Fate.of.the.Furious.2017.1080p.BluRay.REMUX.AVC.DTS-X.7.1-FGT
Language : French
Default : No
Forced : No

Audio #6
ID : 7
Format : AC-3
Format/Info : Audio Coding 3
Mode : Dolby Digital
Format settings, Endianness : Big
Codec ID : A_AC3
Duration : 2 h 15 min
Bit rate mode : Constant
Bit rate : 192 kb/s
Channel(s) : 2 channels
Channel positions : Front: L R
Sampling rate : 48.0 kHz
Frame rate : 31.250 FPS (1536 spf)
Bit depth : 16 bits
Compression mode : Lossy
Stream size : 187 MiB (1%)
Title : The.Fate.of.the.Furious.2017.1080p.BluRay.REMUX.AVC.DTS-X.7.1-FGT
Language : English
Service kind : Complete Main
Default : No
Forced : No

Audio #7
ID : 8
Format : AC-3
Format/Info : Audio Coding 3
Mode : Dolby Digital
Format settings, Endianness : Big
Codec ID : A_AC3
Duration : 2 h 15 min
Bit rate mode : Constant
Bit rate : 192 kb/s
Channel(s) : 2 channels
Channel positions : Front: L R
Sampling rate : 48.0 kHz
Frame rate : 31.250 FPS (1536 spf)
Bit depth : 16 bits
Compression mode : Lossy
Stream size : 187 MiB (1%)
Title : The.Fate.of.the.Furious.2017.1080p.BluRay.REMUX.AVC.DTS-X.7.1-FGT
Language : English
Service kind : Complete Main
Default : No
Forced : No

Text #1
ID : 9
Format : PGS
Muxing mode : zlib
Codec ID : S_HDMV/PGS
Codec ID/Info : Picture based subtitle format used on BDs/HD-DVDs
Title : English-PGS
Language : English
Default : Yes
Forced : No

Text #2
ID : 10
Format : PGS
Muxing mode : zlib
Codec ID : S_HDMV/PGS
Codec ID/Info : Picture based subtitle format used on BDs/HD-DVDs
Title : Spanish-PGS
Language : Spanish
Default : No
Forced : No

Text #3
ID : 11
Format : PGS
Muxing mode : zlib
Codec ID : S_HDMV/PGS
Codec ID/Info : Picture based subtitle format used on BDs/HD-DVDs
Title : French-PGS
Language : French
Default : No
Forced : No

Text #4
ID : 12
Format : PGS
Muxing mode : zlib
Codec ID : S_HDMV/PGS
Codec ID/Info : Picture based subtitle format used on BDs/HD-DVDs
Title : Spanish-FORCED-PGS
Language : Spanish
Default : No
Forced : No

Text #5
ID : 13
Format : PGS
Muxing mode : zlib
Codec ID : S_HDMV/PGS
Codec ID/Info : Picture based subtitle format used on BDs/HD-DVDs
Title : French-FORCED-PGS
Language : French
Default : No
Forced : No

Menu
00:00:00.000 : en:Chapter 01
00:13:08.913 : en:Chapter 02
00:20:30.771 : en:Chapter 03
00:26:38.638 : en:Chapter 04
00:32:26.778 : en:Chapter 05
00:36:40.573 : en:Chapter 06
00:43:35.613 : en:Chapter 07
00:47:45.779 : en:Chapter 08
00:56:00.732 : en:Chapter 09
01:04:08.302 : en:Chapter 10
01:09:08.060 : en:Chapter 11
01:13:24.274 : en:Chapter 12
01:21:25.714 : en:Chapter 13
01:29:29.947 : en:Chapter 14
01:35:12.456 : en:Chapter 15
01:39:55.781 : en:Chapter 16
01:45:00.711 : en:Chapter 17
01:53:01.858 : en:Chapter 18
02:01:51.262 : en:Chapter 19
02:06:45.097 : en:Chapter 20

5f9ca03c9a2d14ee6c26a385246dcaad.jpgf65baced9418304210326b40e8f2834c.jpg
e6eef04950b085893eeaf27ce2bb7453.jpgd4e734f83e7b71f0ae4e0398e4add9a5.jpg
baed7d97b3a3dbd24baa03e9efcc2157.jpg24da226baccc0c543e8512a428fe84e5.jpg


[2017] [欧美] [动作]速度与激情8 2017.1080p.BluRay.REMUX.AVC.DTS-X.7.1-FGT 33.7GB Magnet磁力链接

无觅关联推荐,快速提升流量