[剧集] [日剧]  [日剧SP][我才不会对黑崎君说的话言听计从(2015)][两集全][TV-720p][日语中字][MP4-1G][猪猪字幕组]

 举报资源    订阅更新    收藏
发布日期: 2017-01-07 01:27:23
更新日期: 2017-01-07 01:27:23
点击次数: 1
文件大小:
发布用户: publisher
标       签: 日剧  日语  我才  会对  中字  
暂时没有资源,稍后补充 补充资源
资源介绍(Description):  举报资源
本站资源收集于互联网,不提供资源存储和上传,仅供网友交流学习,版权均归原权利方,不得用于商业用途,欢迎大家对侵犯版权等不合法和不健康行为进行监督和举报!

欢迎热爱p2p分享者入驻p2p资源分享社区

magnet:?xt=urn:btih:5d80e3a0935798b6a3a84382db4fec1a73b3e826&dn=打包



magnet:?xt=urn:btih:2b3e5a7a68af6ba3a7063c3c2e0018a47f470f8f&dn=[SUBPIG][Kurosakikun no Iinari ni Nante Naranai Part I SP].mp4 - 521.7 MB

magnet:?xt=urn:btih:8b9a2cc33fb99d7ef8a02f0d5e22ca41093d9f72&dn=[SUBPIG][Kurosakikun no Iinari ni Nante Naranai Part II End SP].mp4 - 515.88 MB

magnet:?xt=urn:btih:2a97ab08e33bfc6105afa5e9fd00a7e37b346e50&dn=[SUBPIG][The Black Devil and the White Prince 2016][720p].mp4 - 946.89 MB

ed2k://|file|[SUBPIG][Kurosakikun no Iinari ni Nante Naranai Part I SP]【上集-日剧SP 我才不会对黑崎君说的话言听计从(2015)】.mp4|547044595|C86A89EEC4F5B7C32473D23D985AC360|/

ed2k://|file|[SUBPIG][Kurosakikun no Iinari ni Nante Naranai Part II End SP]【下集-日剧SP 我才不会对黑崎君说的话言听计从(2015)】.mp4|540934296|750FD4E7373E62D308DBC63B440B6C2B|/

ed2k://|file|[SUBPIG][The Black Devil and the White Prince 2016][720p]【日影 我才不会对黑崎君说的话言听计从(2016)】.mp4|992883179|89F811E6609315C331DB2B83A3E8D6F6|/

ed2k://|file|我才不会对黑崎君说的话言听计从.The.Black.Devil.and.the.White.Prince.2016.BD.MiniSD-TLF.mkv|745929586|7654AAFE868CE7CB0186BC8C1DCFAD7A|/

日剧SP版 :http://pan.baidu.com/s/1bnP0vX9

电影版:http://pan.baidu.com/s/1qYCLYPY

http://www.suppig.net/forum.php?mod=viewthread&tid=1121879

http://blog.aipanpan.com/archives/19698

(注: SP:特别篇。这日剧SP版与电影版情节完全不同)

15tgdt.jpg

General
Complete name : [日剧SP][我才不会对黑崎君说的话言听计从(2015)][两集全][TV-720p][日语中字][MP4-1G][猪猪字幕组]\[SUBPIG][Kurosakikun no Iinari ni Nante Naranai Part I SP]【上集-日剧SP 我才不会对黑崎君说的话言听计从(2015)】.mp4
Format : MPEG-4
Format profile : Base Media
Codec ID : isom
File size : 522 MiB
Duration : 43mn 14s
Overall bit rate : 1 687 Kbps
Encoded date : UTC 2015-12-24 06:31:45
Tagged date : UTC 2015-12-24 06:31:45

Video
ID : 1
Format : AVC
Format/Info : Advanced Video Codec
Format profile : High@L4.1
Format settings, CABAC : Yes
Format settings, ReFrames : 3 frames
Codec ID : avc1
Codec ID/Info : Advanced Video Coding
Duration : 43mn 14s
Source duration : 17s 848ms
Bit rate : 1 300 Kbps
Maximum bit rate : 4 249 Kbps
Width : 1 280 pixels
Height : 720 pixels
Display aspect ratio : 16:9
Frame rate mode : Constant
Frame rate : 29.970 fps
Color space : YUV
Chroma subsampling : 4:2:0
Bit depth : 8 bits
Scan type : Progressive
Bits/(Pixel*Frame) : 0.047
Stream size : 402 MiB (77%)
Source stream size : 402 MiB (77%)
Writing library : x264 core 120 r2164 da19765
Encoding settings : cabac=1 / ref=3 / deblock=1:0:0 / analyse=0x3:0x113 / me=umh / subme=7 / psy=1 / psy_rd=1.00:0.00 / mixed_ref=1 / me_range=16 / chroma_me=1 / trellis=2 / 8x8dct=1 / cqm=0 / deadzone=21,11 / fast_pskip=1 / chroma_qp_offset=-2 / threads=12 / sliced_threads=0 / nr=0 / decimate=1 / interlaced=0 / bluray_compat=0 / constrained_intra=0 / bframes=3 / b_pyramid=0 / b_adapt=2 / b_bias=0 / direct=3 / weightb=1 / open_gop=0 / weightp=2 / keyint=300 / keyint_min=29 / scenecut=40 / intra_refresh=0 / rc_lookahead=40 / rc=2pass / mbtree=1 / bitrate=1300 / ratetol=1.0 / qcomp=0.60 / qpmin=0 / qpmax=69 / qpstep=4 / cplxblur=20.0 / qblur=0.5 / vbv_maxrate=17500 / vbv_bufsize=14000 / nal_hrd=none / ip_ratio=1.40 / aq=1:1.00
Encoded date : UTC 2015-12-24 06:31:45
Tagged date : UTC 2015-12-24 06:32:22
mdhd_Duration : 2594828

Audio
ID : 2
Format : AC-3
Format/Info : Audio Coding 3
Mode extension : CM (complete main)
Format settings, Endianness : Big
Codec ID : ac-3
Duration : 43mn 14s
Bit rate mode : Constant
Bit rate : 384 Kbps
Channel(s) : 2 channels
Channel positions : Front: L R
Sampling rate : 48.0 KHz
Bit depth : 16 bits
Compression mode : Lossy
Stream size : 119 MiB (23%)
Encoded date : UTC 2015-12-24 06:31:49
Tagged date : UTC 2015-12-24 06:32:22

XWQQI.jpg

General
Complete name :[SUBPIG][The Black Devil and the White Prince 2016][720p]【日影 我才不会对黑崎君说的话言听计从(2016)】.mp4
Format : MPEG-4
Format profile : Base Media
Codec ID : isom
File size : 947 MiB
Duration : 1h 32mn
Overall bit rate mode : Variable
Overall bit rate : 1 427 Kbps
Encoded date : UTC 2016-08-20 14:28:57
Tagged date : UTC 2016-08-20 14:28:57

Video
ID : 1
Format : AVC
Format/Info : Advanced Video Codec
Format profile : High@L3.1
Format settings, CABAC : Yes
Format settings, ReFrames : 4 frames
Codec ID : avc1
Codec ID/Info : Advanced Video Coding
Duration : 1h 32mn
Bit rate : 1 300 Kbps
Maximum bit rate : 13.5 Mbps
Width : 1 280 pixels
Height : 690 pixels
Display aspect ratio : 1.85:1
Frame rate mode : Constant
Frame rate : 29.970 fps
Color space : YUV
Chroma subsampling : 4:2:0
Bit depth : 8 bits
Scan type : Progressive
Bits/(Pixel*Frame) : 0.049
Stream size : 861 MiB (91%)
Writing library : x264 core 120 r2164 da19765
Encoding settings : cabac=1 / ref=3 / deblock=1:0:0 / analyse=0x3:0x113 / me=hex / subme=7 / psy=1 / psy_rd=1.00:0.00 / mixed_ref=1 / me_range=16 / chroma_me=1 / trellis=1 / 8x8dct=1 / cqm=0 / deadzone=21,11 / fast_pskip=1 / chroma_qp_offset=-2 / threads=12 / sliced_threads=0 / nr=0 / decimate=1 / interlaced=0 / bluray_compat=0 / constrained_intra=0 / bframes=3 / b_pyramid=2 / b_adapt=1 / b_bias=0 / direct=1 / weightb=1 / open_gop=0 / weightp=2 / keyint=300 / keyint_min=29 / scenecut=40 / intra_refresh=0 / rc_lookahead=40 / rc=2pass / mbtree=1 / bitrate=1300 / ratetol=1.0 / qcomp=0.60 / qpmin=0 / qpmax=69 / qpstep=4 / cplxblur=20.0 / qblur=0.5 / ip_ratio=1.40 / aq=1:1.00
Encoded date : UTC 2016-08-20 13:51:27
Tagged date : UTC 2016-08-20 14:30:06

Audio
ID : 2
Format : AAC
Format/Info : Advanced Audio Codec
Format profile : LC
Codec ID : 40
Duration : 1h 32mn
Bit rate mode : Variable
Bit rate : 125 Kbps
Maximum bit rate : 147 Kbps
Channel(s) : 2 channels
Channel positions : Front: L R
Sampling rate : 48.0 KHz
Compression mode : Lossy
Stream size : 83.1 MiB (9%)
Encoded date : UTC 2016-08-20 14:29:42
Tagged date : UTC 2016-08-20 14:30:06

12AZle.jpg

General
Unique ID : 204965978078735235179846448596456916944 (0x9A3302F01B72A780A41ABBEF5F3D47D0)
Complete name :我才不会对黑崎君说的话言听计从.The.Black.Devil.and.the.White.Prince.2016.BD.MiniSD-TLF.mkv
Format : Matroska
Format version : Version 4 / Version 2
File size : 711 MiB
Duration : 1h 32mn
Overall bit rate : 1 075 Kbps
Encoded date : UTC 2016-09-01 22:35:14
Writing application : mkvmerge v8.9.0 ('Father Daughter') 32bit
Writing library : libebml v1.3.3 + libmatroska v1.4.4
DURATION : 01:32:02.160000000
NUMBER_OF_FRAMES : 979
NUMBER_OF_BYTES : 19513
_STATISTICS_WRITING_APP : mkvmerge v8.9.0 ('Father Daughter') 32bit
_STATISTICS_WRITING_DATE_UTC : 2016-09-01 22:35:14
_STATISTICS_TAGS : BPS DURATION NUMBER_OF_FRAMES NUMBER_OF_BYTES

Video
ID : 1
Format : AVC
Format/Info : Advanced Video Codec
Format profile : High@L3.1
Format settings, CABAC : Yes
Format settings, ReFrames : 8 frames
Codec ID : V_MPEG4/ISO/AVC
Duration : 1h 32mn
Width : 854 pixels
Height : 460 pixels
Display aspect ratio : 1.85:1
Frame rate mode : Constant
Frame rate : 23.976 fps
Color space : YUV
Chroma subsampling : 4:2:0
Bit depth : 8 bits
Scan type : Progressive
Writing library : x264 core 148 r2638 7599210
Encoding settings : cabac=1 / ref=8 / deblock=1:-1:-1 / analyse=0x3:0x113 / me=umh / subme=9 / psy=1 / psy_rd=0.30:0.00 / mixed_ref=1 / me_range=16 / chroma_me=1 / trellis=2 / 8x8dct=1 / cqm=0 / deadzone=21,11 / fast_pskip=0 / chroma_qp_offset=-2 / threads=12 / lookahead_threads=1 / sliced_threads=0 / nr=0 / decimate=1 / interlaced=0 / bluray_compat=0 / constrained_intra=0 / bframes=5 / b_pyramid=2 / b_adapt=2 / b_bias=0 / direct=3 / weightb=1 / open_gop=0 / weightp=2 / keyint=240 / keyint_min=23 / scenecut=40 / intra_refresh=0 / rc_lookahead=50 / rc=crf / mbtree=1 / crf=18.0 / qcomp=0.60 / qpmin=0 / qpmax=69 / qpstep=4 / ip_ratio=1.40 / aq=1:0.80
Default : Yes
Forced : No
Color range : Limited
Matrix coefficients : BT.709

Audio
ID : 2
Format : AAC
Format/Info : Advanced Audio Codec
Format profile : HE-AAC / LC
Codec ID : A_AAC
Duration : 1h 32mn
Channel(s) : 2 channels
Channel positions : Front: L R
Sampling rate : 48.0 KHz / 24.0 KHz
Compression mode : Lossy
Delay relative to video : 31ms
Title : 日语
Default : Yes
Forced : No

Text #1
ID : 3
Format : UTF-8
Codec ID : S_TEXT/UTF8
Codec ID/Info : UTF-8 Plain Text
Title : 简体中字
Default : Yes
Forced : No

Text #2
ID : 4
Format : UTF-8
Codec ID : S_TEXT/UTF8
Codec ID/Info : UTF-8 Plain Text
Title : 繁体中字
Default : No
Forced : No


无觅关联推荐,快速提升流量